#TITLE:Dragon God;
#SUBTITLE:;
#ARTIST:光田康典;
#TITLETRANSLIT:;
#SUBTITLETRANSLIT:;
#ARTISTTRANSLIT:Yasunori Mitsuda;
#CREDIT:;
#BANNER:Dragon God.png;
#BACKGROUND:Dragon God-bg.png;
#LYRICSPATH:;
#CDTITLE:Nosaj Originals.png;
#MUSIC:Dragon God.mp3;
#OFFSET:-0.024;
#SAMPLESTART:27.789;
#SAMPLELENGTH:12.000;
#SELECTABLE:YES;
#BPMS:0.000=216.100;
#STOPS:;
#BGCHANGES:;
// cache tags:
#FIRSTBEAT:52.000;
#LASTBEAT:611.333;
#SONGFILENAME:Songs/Music V.I.P ^_^/Dragon God/Dragon God.sm;
#HASMUSIC:1;
#HASBANNER:1;
#MUSICLENGTH:170.065;
// end cache tags

//---------------dance-single - ----------------
#NOTES:
     dance-single:
     :
     Easy:
     5:
     0.340,0.539,0.612,0.359,0.035,240.000,104.000,61.000,0.000,0.000:  // measure 1
0000
0000
0000
0000
,  // measure 2
0000
0000
0000
0000
,  // measure 3
0000
0000
0000
0000
,  // measure 4
0000
0000
0000
0000
,  // measure 5
0000
0000
0000
0000
,  // measure 6
0000
0000
0000
0000
,  // measure 7
0000
0000
0000
0000
,  // measure 8
0000
0000
0000
0000
,  // measure 9
0000
0000
0000
0000
,  // measure 10
0000
0000
0000
0000
,  // measure 11
0000
0000
0000
0000
,  // measure 12
0000
0000
0000
0000
,  // measure 13
0000
0000
0000
0000
,  // measure 14
1001
0000
0100
0000
,  // measure 15
1001
0000
0010
0000
,  // measure 16
0110
0000
1000
0000
,  // measure 17
0110
0000
0001
0000
,  // measure 18
1100
0000
0010
0000
,  // measure 19
1100
0000
0001
0000
,  // measure 20
0011
0000
1000
0000
,  // measure 21
0011
0000
0100
0000
,  // measure 22
1010
0000
0001
0000
,  // measure 23
1010
0000
0100
0000
,  // measure 24
0101
0000
1000
0000
,  // measure 25
0101
0000
0010
0000
,  // measure 26
1001
0000
0110
0000
,  // measure 27
1001
0000
0110
0000
,  // measure 28
1010
0000
1100
0000
,  // measure 29
0101
0000
0011
0000
,  // measure 30
0200
0000
2300
0000
,  // measure 31
3020
0000
0030
0000
,  // measure 32
0200
0000
0302
0000
,  // measure 33
0023
0000
0030
0000
,  // measure 34
0200
0000
2300
0000
,  // measure 35
3020
0000
0030
0000
,  // measure 36
0200
0000
0302
0000
,  // measure 37
0023
0000
0030
0000
,  // measure 38
2002
0000
0000
0000
,  // measure 39
0000
0000
0000
0000
3003
0000
0010
0000
0000
0000
0000
0000
,  // measure 40
1000
0000
0100
0000
,  // measure 41
0001
0000
0010
0000
,  // measure 42
0200
0000
0000
0000
,  // measure 43
0000
0000
0000
0000
0300
0000
1001
0000
0000
0000
0000
0000
,  // measure 44
0020
0000
0000
0000
,  // measure 45
0000
0000
0030
0000
,  // measure 46
0220
0000
0000
0000
,  // measure 47
0000
0000
0000
0000
0330
0000
1000
0000
0000
0000
0000
0000
,  // measure 48
0100
0000
0001
0000
,  // measure 49
0010
0000
1000
0000
,  // measure 50
0002
0000
0000
0000
,  // measure 51
0000
0000
0000
0000
0003
0000
0100
0000
0000
0000
0000
0000
,  // measure 52
0010
0000
1000
0000
,  // measure 53
0001
0000
0100
0000
,  // measure 54
2002
0000
0000
0000
,  // measure 55
0000
0000
0000
0000
0000
0000
0000
0000
0000
0000
3003
0000
,  // measure 56
0010
0000
0100
0000
,  // measure 57
0010
0000
0100
0000
,  // measure 58
1000
0000
0001
0000
,  // measure 59
0110
0000
0000
0000
0110
0000
0000
0000
0000
0000
0000
0000
,  // measure 60
1000
0000
0001
0000
,  // measure 61
1000
0000
0001
0000
,  // measure 62
1010
0000
1100
0000
,  // measure 63
0011
0000
0000
0000
0101
0000
0000
0000
0000
0000
0000
0000
,  // measure 64
0110
0000
1001
0000
,  // measure 65
0110
0000
1001
0000
,  // measure 66
0010
0000
0001
0000
,  // measure 67
1000
0000
0000
0000
0100
0000
0000
0000
0000
0000
0000
0000
,  // measure 68
0010
0000
0001
0000
,  // measure 69
1000
0000
0100
0000
,  // measure 70
1001
0000
0220
0000
,  // measure 71
0000
0000
0000
0000
0000
0000
0000
0000
0000
0000
0330
0000
,  // measure 72
0011
0000
2200
0000
,  // measure 73
0000
0000
0000
0000
0000
0000
0000
0000
0000
0000
3300
0000
,  // measure 74
1010
0000
0202
0000
,  // measure 75
0000
0000
0000
0000
0000
0000
0000
0000
0000
0000
0303
0000
,  // measure 76
1010
0000
1100
0000
,  // measure 77
0011
0000
0101
0000
,  // measure 78
2020
0000
3030
0000
,  // measure 79
0022
0000
0033
0000
,  // measure 80
1000
0000
0100
0000
,  // measure 81
1001
0000
0000
0000
2002
0000
0000
0000
0000
0000
3003
0000
,  // measure 82
0202
0000
0303
0000
,  // measure 83
2200
0000
3300
0000
,  // measure 84
0010
0000
0001
0000
,  // measure 85
0110
0000
0000
0000
0220
0000
0000
0000
0000
0000
0330
0000
,  // measure 86
2002
0000
3003
0000
,  // measure 87
0100
0000
0010
0000
,  // measure 88
1010
0000
0000
0000
1100
0000
0000
0000
0000
0000
0000
0000
,  // measure 89
0002
0000
0000
0000
0003
0000
0200
0000
0000
0000
0300
0000
,  // measure 90
1001
0000
0010
0000
,  // measure 91
0110
0000
1000
0000
,  // measure 92
1001
0000
0100
0000
,  // measure 93
0110
0000
0001
0000
,  // measure 94
1001
0000
0100
0000
,  // measure 95
0110
0000
0001
0000
,  // measure 96
1001
0000
0010
0000
,  // measure 97
0110
0000
1000
0000
,  // measure 98
0101
0000
0010
0000
,  // measure 99
1100
0000
0001
0000
,  // measure 100
1010
0000
0100
0000
,  // measure 101
0011
0000
1000
0000
,  // measure 102
1010
0000
0001
0000
,  // measure 103
1100
0000
0010
0000
,  // measure 104
0101
0000
1000
0000
,  // measure 105
0011
0000
0100
0000
,  // measure 106
0200
0000
2300
0000
,  // measure 107
3020
0000
0030
0000
,  // measure 108
0200
0000
0302
0000
,  // measure 109
0023
0000
0030
0000
,  // measure 110
0200
0000
2300
0000
,  // measure 111
3020
0000
0030
0000
,  // measure 112
0200
0000
0302
0000
,  // measure 113
0023
0000
0030
0000
,  // measure 114
1000
0000
1000
0000
,  // measure 115
1000
0000
1000
0000
,  // measure 116
0001
0000
0001
0000
,  // measure 117
0001
0000
0001
0000
,  // measure 118
0110
0000
0110
0000
,  // measure 119
0110
0000
0110
0000
,  // measure 120
1001
0000
1001
0000
,  // measure 121
1001
0000
1001
0000
,  // measure 122
1010
0000
1010
0000
,  // measure 123
1010
0000
1010
0000
,  // measure 124
1100
0000
1100
0000
,  // measure 125
1100
0000
1100
0000
,  // measure 126
0101
0000
0101
0000
,  // measure 127
0101
0000
0101
0000
,  // measure 128
0011
0000
0011
0000
,  // measure 129
0011
0000
0011
0000
,  // measure 130
2002
0000
0000
0000
,  // measure 131
0000
0000
0000
0000
0000
0000
0000
0000
0000
0000
3003
0000
,  // measure 132
0001
0000
0100
0000
,  // measure 133
0010
0000
1000
0000
,  // measure 134
0100
0000
0010
0000
,  // measure 135
0001
0000
0000
0000
0100
0000
0000
0000
0000
0000
0000
0000
,  // measure 136
0010
0000
1000
0000
,  // measure 137
0100
0000
0010
0000
,  // measure 138
0001
0000
0010
0000
,  // measure 139
0100
0000
0000
0000
1000
0000
0000
0000
0000
0000
0000
0000
,  // measure 140
0010
0000
0100
0000
,  // measure 141
0001
0000
0010
0000
,  // measure 142
0100
0000
1000
0000
,  // measure 143
0010
0000
0000
0000
0100
0000
0000
0000
0000
0000
0000
0000
,  // measure 144
0001
0000
0010
0000
,  // measure 145
0100
0000
1000
0000
,  // measure 146
1000
0000
0002
0000
,  // measure 147
0000
0000
0003
0000
,  // measure 148
0001
0000
2000
0000
,  // measure 149
0000
0000
3000
0000
,  // measure 150
0110
0000
2002
0000
,  // measure 151
0000
0000
0000
0000
0000
0000
0000
0000
0000
0000
3003
0000
,  // measure 152
0110
0000
0000
0000
0000
0000
1001
0000
0000
0000
0110
0000
,  // measure 153
0000
0000
1001
0000
0000
0000
0110
0000
0000
0000
1001
0000
;

//---------------dance-single - ----------------
#NOTES:
     dance-single:
     :
     Medium:
     7:
     0.477,0.629,0.447,0.576,0.294,394.000,76.000,98.000,0.000,0.000:  // measure 1
0000
0000
0000
0000
,  // measure 2
0000
0000
0000
0000
,  // measure 3
0000
0000
0000
0000
,  // measure 4
0000
0000
0000
0000
,  // measure 5
0000
0000
0000
0000
,  // measure 6
0000
0000
0000
0000
,  // measure 7
0000
0000
0000
0000
,  // measure 8
0000
0000
0000
0000
,  // measure 9
0000
0000
0000
0000
,  // measure 10
0000
0000
0000
0000
,  // measure 11
0000
0000
0000
0000
,  // measure 12
0000
0000
0000
0000
,  // measure 13
0000
0000
0000
0000
,  // measure 14
1000
0000
0100
0000
,  // measure 15
1000
0000
0100
0000
1000
0000
0100
0000
0000
0000
0000
0000
,  // measure 16
0001
0000
0100
0000
,  // measure 17
0001
0000
0100
0000
0001
0000
0100
0000
0000
0000
0000
0000
,  // measure 18
0010
0000
0100
0000
,  // measure 19
0010
0000
0100
0000
0010
0000
0100
0000
0000
0000
0000
0000
,  // measure 20
0100
0000
1000
0000
0100
0000
0010
0000
0100
0000
0001
0000
,  // measure 21
0100
0000
0010
0000
0100
0000
1000
0000
0100
0000
0001
0000
,  // measure 22
0001
0000
0010
0000
,  // measure 23
0001
0000
0010
0000
0001
0000
0010
0000
0000
0000
0000
0000
,  // measure 24
1000
0000
0010
0000
,  // measure 25
1000
0000
0010
0000
1000
0000
0010
0000
0000
0000
0000
0000
,  // measure 26
0100
0000
0010
0000
,  // measure 27
0100
0000
0010
0000
0100
0000
0010
0000
0000
0000
0000
0000
,  // measure 28
0010
0000
0001
0000
0010
0000
0100
0000
0010
0000
1000
0000
,  // measure 29
0010
0000
0100
0000
0010
0000
2002
0000
0000
0000
3003
0000
,  // measure 30
0100
0000
0000
0100
1000
0000
0000
1000
,  // measure 31
0010
0000
0000
0010
0001
0000
0000
0001
,  // measure 32
0100
0000
0000
0100
1000
0000
0000
1000
,  // measure 33
0010
0000
0000
0010
0001
0000
0000
0001
,  // measure 34
0010
0000
0000
0010
1000
0000
0000
1000
,  // measure 35
0100
0000
0000
0100
0001
0000
0000
0001
,  // measure 36
0010
0000
0000
0010
1000
0000
0000
1000
,  // measure 37
0100
0000
0000
0100
0001
0000
0000
0001
,  // measure 38
0002
0000
0000
0000
,  // measure 39
0003
0000
0000
0010
0002
0000
0003
0001
,  // measure 40
2000
0000
3000
1000
0002
0000
0003
0001
,  // measure 41
2000
0000
3000
1000
0002
0000
0003
0001
,  // measure 42
2000
0000
0000
0000
,  // measure 43
0000
0000
3000
0001
2000
0000
3000
1000
,  // measure 44
0002
0000
0000
0000
,  // measure 45
0000
0000
0000
0003
,  // measure 46
2000
0000
0000
0000
,  // measure 47
3000
0000
0000
0100
2000
0000
3000
1000
,  // measure 48
0002
0000
0003
0001
2000
0000
3000
1000
,  // measure 49
0002
0000
0003
0001
2000
0000
3000
1000
,  // measure 50
0002
0000
0000
0000
,  // measure 51
0000
0000
0003
1000
0002
0000
0003
0001
,  // measure 52
2000
0000
3200
0000
,  // measure 53
0302
0000
0000
0000
0000
0000
0023
0000
0000
0000
0030
0000
,  // measure 54
2002
0000
0000
0000
,  // measure 55
0000
0000
0000
3003
,  // measure 56
1000
0000
0001
0000
0100
0000
0010
0000
0000
0000
0000
0000
,  // measure 57
1001
0000
0110
0000
,  // measure 58
0100
0000
0001
0000
0010
0000
1000
0000
0000
0000
0000
0000
,  // measure 59
0011
0000
0000
0000
1100
0000
0000
0000
0000
0000
0000
0000
,  // measure 60
1000
0000
0100
0000
0010
0000
0001
0000
0000
0000
0000
0000
,  // measure 61
2020
0000
0000
0000
3030
0000
0202
0000
0000
0000
0303
0000
,  // measure 62
0010
0000
0100
0000
0010
0000
0100
0000
0000
0000
0000
0000
,  // measure 63
1001
0000
0000
0000
1001
0000
0000
0000
0000
0000
0000
0000
,  // measure 64
1000
0000
0001
0000
1000
0000
0001
0000
0000
0000
0000
0000
,  // measure 65
0110
0000
1001
0000
,  // measure 66
0010
0000
1000
0000
0100
0000
0001
0000
0000
0000
0000
0000
,  // measure 67
1100
0000
0000
0000
0011
0000
0000
0000
0000
0000
0000
0000
,  // measure 68
0001
0000
0010
0000
0100
0000
1000
0000
0000
0000
0000
0000
,  // measure 69
0202
0000
0000
0000
0303
0000
2020
0000
0000
0000
3030
0000
,  // measure 70
0021
0000
0100
0000
,  // measure 71
0000
0000
0000
0000
0000
0000
0000
0000
0000
0000
0030
0000
,  // measure 72
1200
0000
0010
0000
,  // measure 73
0000
0000
0000
0000
0000
0000
0000
0000
0000
0000
0300
0000
,  // measure 74
2002
0000
0000
0000
3003
0000
0220
0000
0000
0000
0000
0000
,  // measure 75
0000
0000
0000
0000
0000
0000
0000
0000
0000
0000
0330
0000
,  // measure 76
1010
0000
1100
0000
,  // measure 77
0101
0000
0011
0000
,  // measure 78
2000
0000
0000
0000
0000
0000
0200
0000
0000
0000
3300
0000
,  // measure 79
0011
0000
0000
0000
1010
0000
0202
0000
0000
0000
0303
0000
,  // measure 80
2000
0000
0000
0000
0000
0000
3020
0000
0000
0000
0030
0000
,  // measure 81
1001
0000
0000
0000
0220
0000
0000
0000
0000
0000
0330
0000
,  // measure 82
0002
0000
0000
0000
0000
0000
0020
0000
0000
0000
0033
0000
,  // measure 83
1100
0000
0000
0000
0101
0000
2020
0000
0000
0000
3030
0000
,  // measure 84
0200
0000
0000
0000
0000
0000
0302
0000
0000
0000
0003
0000
,  // measure 85
0110
0000
0000
0000
2002
0000
0000
0000
0000
0000
3003
0000
,  // measure 86
0200
0000
0000
0000
0000
0000
0020
0000
0000
0000
0330
0000
,  // measure 87
1000
0000
0000
0000
0001
0000
0220
0000
0000
0000
0330
0000
,  // measure 88
1010
0000
0000
0000
0101
0000
0000
0000
0000
0000
0101
0000
,  // measure 89
0010
0000
0000
0000
0001
0000
2200
0000
0000
0000
3300
0000
,  // measure 90
0010
0000
1000
0000
0100
0000
0001
0000
0000
0000
0000
0000
,  // measure 91
1010
0000
1100
0000
,  // measure 92
0001
0000
0100
0000
1000
0000
0010
0000
0000
0000
0000
0000
,  // measure 93
0101
0000
0011
0000
,  // measure 94
0100
0000
1000
0000
0010
0000
0001
0000
0000
0000
0000
0000
,  // measure 95
1010
0000
1001
0000
,  // measure 96
1000
0000
0100
0000
0001
0000
0100
0000
1000
0000
0100
0000
,  // measure 97
0001
0000
0100
0000
1000
0000
0100
0000
0001
0000
0100
0000
,  // measure 98
1000
0000
0001
0000
0100
0000
1000
0000
0000
0000
0000
0000
,  // measure 99
0110
0000
0011
0000
,  // measure 100
1000
0000
0010
0000
0001
0000
0010
0000
0000
0000
0000
0000
,  // measure 101
1010
0000
0101
0000
,  // measure 102
1000
0000
0100
0000
0001
0000
0010
0000
0000
0000
0000
0000
,  // measure 103
1100
0000
0011
0000
,  // measure 104
0010
0000
0001
0000
0100
0000
1000
0000
0100
0000
0001
0000
,  // measure 105
0010
0000
0001
0000
0100
0000
2002
0000
0000
0000
3003
0000
,  // measure 106
0001
0000
0000
0001
0010
0000
0000
0010
,  // measure 107
1000
0000
0000
1000
0100
0000
0000
0100
,  // measure 108
0001
0000
0000
0001
0010
0000
0000
0010
,  // measure 109
1000
0000
0000
1000
0100
0000
0000
0100
,  // measure 110
1000
0000
0000
1000
0010
0000
0000
0010
,  // measure 111
0001
0000
0000
0001
0100
0000
0000
0100
,  // measure 112
1000
0000
0000
1000
0010
0000
0000
0010
,  // measure 113
0001
0000
0000
0001
0100
0000
0000
0100
,  // measure 114
0020
0000
0000
0000
,  // measure 115
0030
0000
0000
0100
0020
0000
0030
0010
,  // measure 116
0200
0000
0300
0100
0020
0000
0030
0010
,  // measure 117
0200
0000
0300
0100
0020
0000
0030
0010
,  // measure 118
0200
0000
0000
0000
,  // measure 119
0000
0000
0300
0010
0200
0000
0300
0100
,  // measure 120
0020
0000
0000
0000
,  // measure 121
0000
0000
0000
0000
0000
0000
0000
0000
0000
0000
0030
0000
,  // measure 122
0200
0000
0000
0000
,  // measure 123
0300
0000
0000
0010
0200
0000
0300
0100
,  // measure 124
0020
0000
0030
0010
0200
0000
0300
0100
,  // measure 125
0020
0000
0030
0010
0200
0000
0300
0100
,  // measure 126
0020
0000
0000
0000
,  // measure 127
0000
0000
0030
0100
0020
0000
0030
0010
,  // measure 128
0200
0000
2300
0000
,  // measure 129
3020
0000
0000
0000
0000
0000
0032
0000
0000
0000
0003
0000
,  // measure 130
0220
0000
0000
0000
,  // measure 131
0000
0000
0000
0000
0000
0000
0000
0000
0000
0000
0330
0000
,  // measure 132
0001
0000
0010
0000
1000
0000
0100
0000
0000
0000
0000
0000
,  // measure 133
0101
0000
0011
0000
,  // measure 134
1000
0000
0010
0000
0001
0000
0100
0000
0000
0000
0000
0000
,  // measure 135
1010
0000
0000
0000
0011
0000
0000
0000
0000
0000
0000
0000
,  // measure 136
0001
0000
1000
0000
0010
0000
0100
0000
0000
0000
0000
0000
,  // measure 137
1001
0000
1010
0000
,  // measure 138
1000
0000
0100
0000
0001
0000
0010
0000
0000
0000
0000
0000
,  // measure 139
1010
0000
0000
0000
1100
0000
0000
0000
0000
0000
0000
0000
,  // measure 140
0001
0000
0100
0000
1000
0000
0010
0000
0000
0000
0000
0000
,  // measure 141
0101
0000
1100
0000
,  // measure 142
1000
0000
0001
0000
0100
0000
0010
0000
0000
0000
0000
0000
,  // measure 143
0110
0000
0000
0000
0101
0000
0000
0000
0000
0000
0000
0000
,  // measure 144
0001
0000
0100
0000
0010
0000
1000
0000
0000
0000
0000
0000
,  // measure 145
0101
0000
0011
0000
,  // measure 146
2200
0000
0000
0000
3300
0000
0022
0000
0000
0000
0000
0000
,  // measure 147
0000
0000
0000
0000
0000
0000
0000
0000
0000
0000
0033
0000
,  // measure 148
0202
0000
0000
0000
0303
0000
2020
0000
0000
0000
0000
0000
,  // measure 149
0000
0000
0000
0000
0000
0000
0000
0000
0000
0000
3030
0000
,  // measure 150
0220
0000
0000
0000
0330
0000
2002
0000
0000
0000
0000
0000
,  // measure 151
0000
0000
0000
0000
0000
0000
0000
0000
0000
0000
3003
0000
,  // measure 152
0001
0000
0100
0000
1000
0000
0010
0000
0001
0000
0100
0000
,  // measure 153
0000
0000
1010
0000
0000
0000
0011
0000
0000
0000
1001
0000
;

//---------------dance-single - ----------------
#NOTES:
     dance-single:
     :
     Hard:
     9:
     0.630,0.899,0.329,0.465,0.938,615.000,56.000,79.000,0.000,0.000:  // measure 1
0000
0000
0000
0000
,  // measure 2
0000
0000
0000
0000
,  // measure 3
0000
0000
0000
0000
,  // measure 4
0000
0000
0000
0000
,  // measure 5
0000
0000
0000
0000
,  // measure 6
0000
0000
0000
0000
,  // measure 7
0000
0000
0000
0000
,  // measure 8
0000
0000
0000
0000
,  // measure 9
0000
0000
0000
0000
,  // measure 10
0000
0000
0000
0000
,  // measure 11
0000
0000
0000
0000
,  // measure 12
0000
0000
0000
0000
,  // measure 13
0000
0000
0000
0000
,  // measure 14
1001
0000
0100
1000
0100
0000
0010
0000
0001
0000
0100
0000
,  // measure 15
0010
0000
1000
0000
0100
0000
0010
0000
0001
0000
0100
0000
,  // measure 16
1010
0000
0100
0001
0100
0000
1000
0000
0100
0000
0001
0000
,  // measure 17
1000
0000
0100
0000
0001
0000
0100
0000
1000
0000
0010
0000
,  // measure 18
0101
0000
0010
1000
0010
0000
1000
0000
0001
0000
0100
0000
,  // measure 19
0001
0000
0010
0000
1000
0000
0100
0000
0010
0000
0001
0000
,  // measure 20
1000
0000
0100
0000
0010
0000
0001
0000
0010
0000
0100
0000
,  // measure 21
1000
0000
0001
0000
0100
0000
0010
0000
1000
0000
0010
0000
,  // measure 22
0110
0000
0001
1000
0001
0000
1000
0000
0001
0000
1000
0000
,  // measure 23
0100
0000
0010
0000
0100
0000
0001
0000
1000
0000
0010
0000
,  // measure 24
1100
0000
0010
0001
0010
0000
0100
0000
0001
0000
0100
0000
,  // measure 25
0010
0000
1000
0000
0010
0000
0001
0000
1000
0000
0100
0000
,  // measure 26
0011
0000
1000
0100
1000
0000
0001
0000
0010
0000
0100
0000
,  // measure 27
0001
0000
1000
0000
0010
0000
0001
0000
0100
0000
1000
0000
,  // measure 28
0110
0000
0001
0100
0001
0000
0100
0000
1000
0000
0010
0000
,  // measure 29
0001
0000
0100
0000
0010
0000
2002
0000
0000
0000
3003
0000
,  // measure 30
1000
0000
0000
1000
0100
0000
0000
0100
,  // measure 31
0010
0000
0000
0000
0000
0000
0000
0000
0000
0010
0000
0000
0001
0000
0000
0000
1000
0000
0000
0000
0100
0000
0000
0000
,  // measure 32
0010
0000
0000
0010
0001
0000
0000
0001
,  // measure 33
0100
0000
0000
0000
0000
0000
0000
0000
0000
0100
0000
0000
0010
0000
0000
0000
1000
0000
0000
0000
0001
0000
0000
0000
,  // measure 34
0100
0000
0000
0100
0001
0000
0000
0001
,  // measure 35
1000
0000
0000
0000
0000
0000
0000
0000
0000
1000
0000
0000
0010
0000
0000
0000
0001
0000
0000
0000
0010
0000
0000
0000
,  // measure 36
1000
0000
0000
1000
0100
0000
0000
0100
,  // measure 37
0001
0000
0000
0000
0000
0000
0000
0000
0000
0001
0000
0000
0100
0000
0000
0000
1000
0000
0000
0000
0010
0000
0000
0000
,  // measure 38
0102
0000
1000
0000
,  // measure 39
0013
0000
0000
0000
0010
0000
1000
0000
0001
0000
0010
0000
,  // measure 40
0200
0000
2300
0000
,  // measure 41
3002
0000
0000
0000
0000
0000
1003
0000
0001
0000
1000
0000
,  // measure 42
0020
0000
0000
0000
,  // measure 43
0000
0000
0000
0000
0030
0000
0001
0000
1000
0000
0010
0000
,  // measure 44
0200
0000
0000
0000
,  // measure 45
0000
0000
0000
0000
0000
0000
0000
0000
0000
0000
0300
0000
,  // measure 46
2010
0000
0001
0000
,  // measure 47
3100
0000
0000
0000
0100
0000
0001
0000
1000
0000
0100
0000
,  // measure 48
0020
0000
0032
0000
,  // measure 49
2003
0000
0000
0000
0000
0000
3001
0000
1000
0000
0001
0000
,  // measure 50
0200
0000
0000
0000
,  // measure 51
0000
0000
0000
0000
0300
0000
1000
0000
0001
0000
0100
0000
,  // measure 52
0020
0000
2030
0000
,  // measure 53
3002
0000
0000
0000
0000
0000
0203
0000
0000
0000
0300
0000
,  // measure 54
2002
0000
0000
0000
,  // measure 55
0000
0000
0000
3003
,  // measure 56
0010
0000
0100
0000
1000
0000
0100
0000
0001
0000
0100
0000
,  // measure 57
1000
0000
0010
0000
0001
0000
0010
0000
0100
0000
1000
0000
,  // measure 58
0001
0000
0010
0000
0100
0000
1000
0000
0001
0000
1000
0000
,  // measure 59
0001
0000
0000
0000
1001
0000
0000
0000
0010
0000
1000
0000
,  // measure 60
0100
0000
1000
0000
0010
0000
1000
0000
0100
0000
0001
0000
,  // measure 61
0100
0000
1000
0000
0100
0000
0001
0000
0100
0000
0010
0000
,  // measure 62
0001
0000
0100
0000
0001
0000
0010
0000
0001
0000
0100
0000
,  // measure 63
1000
0000
0000
0000
0110
0000
0000
0000
0001
0000
1000
0000
,  // measure 64
0100
0000
1000
0000
0100
0000
1000
0000
0100
0000
1000
0000
,  // measure 65
0001
0000
0010
0000
0001
0000
0010
0000
0001
0000
0010
0000
,  // measure 66
0100
0000
1000
0000
0010
0000
0001
0000
0100
0000
1000
0000
,  // measure 67
0001
0000
0000
0000
1001
0000
0000
0000
0100
0000
0001
0000
,  // measure 68
0010
0000
0001
0000
0100
0000
0001
0000
0010
0000
1000
0000
,  // measure 69
0010
0000
0001
0000
0010
0000
1000
0000
0010
0000
0100
0000
,  // measure 70
2010
0000
0100
0000
,  // measure 71
0000
0000
0000
0000
0000
0000
0000
0000
0000
0000
3000
0000
,  // measure 72
0102
0000
0010
0000
,  // measure 73
0000
0000
0000
0000
0000
0000
0000
0000
0000
0000
0003
0000
,  // measure 74
0220
0000
0000
0000
0000
0330
2002
0000
0000
0000
0000
0000
,  // measure 75
0000
0000
0000
0000
0000
0000
0000
0000
0000
0000
3003
0000
,  // measure 76
1000
0000
0001
0000
1000
0000
0001
0000
1000
0000
0001
0000
,  // measure 77
0000
0000
0010
0000
0000
0000
0100
0000
0000
0000
1001
0000
,  // measure 78
2002
0000
0000
0000
0003
0000
0020
0000
0000
0000
3030
0000
,  // measure 79
0200
0000
0300
0000
0002
0000
2000
0000
0000
0000
3003
0000
,  // measure 80
0010
0000
0000
0000
0100
0000
0020
0000
0000
0000
0030
0000
,  // measure 81
0100
0000
0000
0000
2200
0000
0000
0000
0000
0000
3300
0000
,  // measure 82
0022
0000
0000
0000
0030
0000
0200
0000
0000
0000
0303
0000
,  // measure 83
2000
0000
3000
0000
2000
0000
0020
0000
0000
0000
3030
0000
,  // measure 84
0010
0000
0000
0000
0200
0000
0000
0000
0000
0000
0300
0000
,  // measure 85
0100
0000
0000
0000
0001
0000
0020
0000
0000
0000
0030
0000
,  // measure 86
2020
0000
0000
0000
3000
0000
0002
0000
0000
0000
0033
0000
,  // measure 87
2000
0000
3000
0000
0002
0000
0200
0000
0000
0000
0303
0000
,  // measure 88
1010
0000
0000
0000
2200
0000
0000
0000
0000
0000
3300
0000
,  // measure 89
0010
0000
0000
0000
0001
0000
0022
0000
0000
0000
0033
0000
,  // measure 90
1000
0000
0100
0010
0001
0000
1000
0000
1000
0000
1000
0000
,  // measure 91
0001
0000
0001
0000
0001
0000
0110
0000
1001
0000
0110
0000
,  // measure 92
0001
0000
0100
0010
1000
0000
0001
0000
0001
0000
0001
0000
,  // measure 93
1000
0000
1000
0000
1000
0000
0101
0000
1010
0000
0101
0000
,  // measure 94
0010
0000
1000
0001
0100
0000
0010
0000
0010
0000
0010
0000
,  // measure 95
0100
0000
0100
0000
0100
0000
0011
0000
1100
0000
0011
0000
,  // measure 96
1000
0000
0100
0000
0001
0000
0010
0000
1000
0000
0100
0000
,  // measure 97
0001
0000
0010
0000
1000
0000
0100
0000
0001
0000
0010
0000
,  // measure 98
0010
0000
1000
0100
0001
0000
0100
0000
1000
0000
0001
0000
,  // measure 99
0100
0000
1000
0000
0001
0000
0100
0000
1000
0000
0001
0000
,  // measure 100
0100
0000
0010
1000
0001
0000
0010
0000
0100
0000
1000
0000
,  // measure 101
0010
0000
0100
0000
1000
0000
0010
0000
0100
0000
1000
0000
,  // measure 102
1000
0000
0001
0010
0100
0000
1000
0000
0001
0000
0100
0000
,  // measure 103
0001
0000
1000
0000
0010
0000
1000
0000
0001
0000
0100
0000
,  // measure 104
0011
0000
1100
0000
0011
0000
0101
0000
1010
0000
0101
0000
,  // measure 105
1001
0000
0110
0000
1001
0000
0220
0000
0000
0000
0330
0000
,  // measure 106
1000
0000
0000
1000
0001
0000
0000
0001
,  // measure 107
1000
0000
0000
0000
0000
0000
0000
0000
0000
1000
0000
0000
0001
0000
0000
0000
1000
0000
0000
0000
0001
0000
0000
0000
,  // measure 108
0100
0000
0000
0100
0010
0000
0000
0010
,  // measure 109
0100
0000
0000
0000
0000
0000
0000
0000
0000
0100
0000
0000
0010
0000
0000
0000
0100
0000
0000
0000
0010
0000
0000
0000
,  // measure 110
1000
0000
0000
1000
0100
0000
0000
0100
,  // measure 111
1000
0000
0000
0000
0000
0000
0000
0000
0000
1000
0000
0000
0100
0000
0000
0000
1000
0000
0000
0000
0100
0000
0000
0000
,  // measure 112
0010
0000
0000
0010
0001
0000
0000
0001
,  // measure 113
0010
0000
0000
0000
0000
0000
0000
0000
0000
0010
0000
0000
0001
0000
0000
0000
0010
0000
0000
0000
0001
0000
0000
0000
,  // measure 114
1020
0000
0100
0000
,  // measure 115
0031
0000
0000
0000
2000
0000
3200
0000
0320
0000
0032
0000
,  // measure 116
0023
0000
0230
0000
,  // measure 117
2300
0000
0000
0000
0000
0000
3100
0000
0010
0000
0001
0000
,  // measure 118
2000
0000
0010
0000
,  // measure 119
0100
0000
0000
0000
3000
0000
0001
0000
0010
0000
0100
0000
,  // measure 120
0002
0000
0010
0000
,  // measure 121
1000
0000
0000
0000
0000
0000
0100
0000
0000
0000
0003
0000
,  // measure 122
0201
0000
0010
0000
,  // measure 123
1300
0000
0000
0000
0002
0000
0023
0000
0230
0000
2300
0000
,  // measure 124
3200
0000
0320
0000
,  // measure 125
0032
0000
0000
0000
0000
0000
0013
0000
0100
0000
1000
0000
,  // measure 126
0002
0000
0100
0000
,  // measure 127
0010
0000
0000
0000
0003
0000
1000
0000
0100
0000
0010
0000
,  // measure 128
0200
0000
2300
0000
,  // measure 129
3020
0000
0000
0000
0000
0000
0032
0000
0000
0000
0003
0000
,  // measure 130
0220
0000
0000
0000
,  // measure 131
0000
0000
0000
0000
0000
0000
0000
0000
0000
0000
0330
0000
,  // measure 132
1000
0000
0001
0000
1000
0000
0100
0000
1000
0000
0100
0000
,  // measure 133
0010
0000
0100
0000
0010
0000
0001
0000
0010
0000
0001
0000
,  // measure 134
1100
0000
0001
0000
0010
0000
1000
0000
0010
0000
0001
0000
,  // measure 135
0100
0000
0000
0000
1010
0000
0000
0000
0100
0000
0100
0000
,  // measure 136
0001
0000
1000
0000
0001
0000
0010
0000
0001
0000
0010
0000
,  // measure 137
0100
0000
0010
0000
0100
0000
1000
0000
0100
0000
1000
0000
,  // measure 138
0110
0000
0010
0000
0001
0000
1000
0000
0001
0000
0100
0000
,  // measure 139
0001
0000
0000
0000
0101
0000
0000
0000
0010
0000
0100
0000
,  // measure 140
0001
0000
1000
0000
0001
0000
0010
0000
0001
0000
0010
0000
,  // measure 141
0100
0000
0010
0000
0100
0000
1000
0000
0100
0000
1000
0000
,  // measure 142
1001
0000
1000
0000
1000
0000
0001
0000
0001
0000
0100
0000
,  // measure 143
0100
0000
0000
0000
0010
0000
0000
0000
0010
0000
0100
0000
,  // measure 144
1000
0000
0100
0000
0001
0000
0100
0000
1000
0000
0100
0000
,  // measure 145
0001
0000
0100
0000
1000
0000
0010
0000
1000
0000
0001
0000
,  // measure 146
1000
0000
0100
1000
0100
0000
0010
0000
0001
0010
0001
0000
,  // measure 147
0010
0000
1000
0010
1000
0000
0001
0000
0100
0001
0100
0000
,  // measure 148
0001
0000
1000
0001
1000
0000
0010
0000
0100
0010
0100
0000
,  // measure 149
0001
0000
0010
0100
1000
0000
0100
0000
0010
0001
1000
0000
,  // measure 150
0001
0000
0100
0000
0100
0000
0010
0000
1000
0000
1000
0000
,  // measure 151
0100
0000
0010
0000
0010
0000
1000
0000
0001
0000
0001
0000
,  // measure 152
1000
0000
0001
0100
0010
0000
1000
0000
0001
0000
0100
0000
,  // measure 153
0000
0000
1001
0000
0000
0000
0110
0000
0000
0000
1001
0000
;
